Saturday, 10 December 2016

Cocteau Twins - Restaurang Continental, Örebro, Sweden - 25.10.1984 (MPG)






Thanks to the anonymous collaborator for sending me this video to post here.

Lineage: Swedish TV broadcast -> VHS (unknown)-> Panasonic NV-HS860 -> EZCAP With Arcsoft Showbiz -> MPG


Setlist:
The Spangle Maker
Pepper-Tree
Millimillenary
Rococo
Pearly Dewdrops Drops

Total Time: 18.26 min

Do Not Sell!
Enjoy.

Format                                   : MPEG-PS
File size                                : 704 MiB
Duration                                 : 18mn 26s
Overall bit rate mode                    : Variable
Overall bit rate                         : 5 339 Kbps
Writing library                          : ArcSoft MPEG-2 PAL

Video
ID                                       : 224 (0xE0)
Format                                   : MPEG Video
Format version                           : Version 2
Format profile                           : Main@Main
Format settings, BVOP                    : Yes
Format settings, Matrix                  : Custom
Format settings, GOP                     : M=3, N=10
Format settings, picture structure       : Frame
Duration                                 : 18mn 26s
Bit rate mode                            : Variable
Bit rate                                 : 5 009 Kbps
Maximum bit rate                         : 7 500 Kbps
Width                                    : 720 pixels
Height                                   : 576 pixels
Display aspect ratio                     : 4:3
Frame rate                               : 25.000 fps
Standard                                 : PAL
Color space                              : YUV
Chroma subsampling                       : 4:2:0
Bit depth                                : 8 bits
Scan type                                : Interlaced
Scan order                               : Top Field First
Compression mode                         : Lossy
Bits/(Pixel*Frame)                       : 0.483
Time code of first frame                 : 00:00:00:00
Time code source                         : Group of pictures header
GOP, Open/Closed                         : Closed
Stream size                              : 661 MiB (94%)
Writing library                          : ArcSoft MPEG-2 PAL
Color primaries                          : BT.601 PAL
Transfer characteristics                 : BT.470 System B, BT.470 System G
Matrix coefficients                      : BT.601

Audio
ID                                       : 192 (0xC0)
Format                                   : MPEG Audio
Format version                           : Version 1
Format profile                           : Layer 2
Duration                                 : 18mn 26s
Bit rate mode                            : Constant
Bit rate                                 : 224 Kbps
Channel(s)                               : 2 channels
Sampling rate                            : 48.0 KHz
Compression mode                         : Lossy
Stream size                              : 29.5 MiB (4%)

restaurangcontinental84

1 comment: