Friday, 16 June 2017

The Sisters Of Mercy - Wembley Arena, London, UK - 26.11.1990 (MKV)








Huge THANKS to the anonimous collaboratorfor sending me this high quality rip of the master video 8 tape. It's as good as it gets for this particular video, in my opinion.


Lineage: Video 8 Master Tape --> Sony EV S9000E --> DataVideo TBC 3000 --> BlackMagic Intensity Pro --> VirtualDub X264 Codec - > MKVToolNixGUI

Setlist:

01. First and Last and Always
02. Lucretia My Reflection
03. Body and Soul
04. Detonation Boulevard
05. Ribbons
06. Dominion/Mother Russia
07. Flood II
08. Valentine
09. Heartland
10. Doctor Jeep
11. Body Electric
12. Amphetamine Logic
13. Marian
14. Alice
15. Gimme Shelter
16. This Corrosion
17. Something Fast
18. Temple of Love
19. Vision Thing
20. 1969

Total Time: 1h 42m


Do Not Sell!
Support The Band by buying official products.
Enjoy.

Format                                   : Matroska
Format version                           : Version 4 / Version 2
File size                                : 8.27 GiB
Duration                                 : 1h 42mn
Overall bit rate                         : 11.5 Mbps
Encoded date                             : UTC 2017-06-04 18:40:45
Writing application                      : mkvmerge v12.0.0 ('Trust / Lust') 64bit
Writing library                          : libebml v1.3.4 + libmatroska v1.4.5
DURATION                                 : 01:42:29.280000000
NUMBER_OF_FRAMES                         : 196777
NUMBER_OF_BYTES                          : 1180661760
_STATISTICS_WRITING_APP                  : mkvmerge v12.0.0 ('Trust / Lust') 64bit
_STATISTICS_WRITING_DATE_UTC             : 2017-06-04 18:40:45
_STATISTICS_TAGS                         : BPS DURATION NUMBER_OF_FRAMES NUMBER_OF_BYTES

Video
ID                                       : 1
Format                                   : AVC
Format/Info                              : Advanced Video Codec
Format profile                           : High@L3.2
Format settings, CABAC                   : Yes
Format settings, ReFrames                : 4 frames
Codec ID                                 : V_MPEG4/ISO/AVC
Duration                                 : 1h 42mn
Nominal bit rate                         : 10 000 Kbps
Width                                    : 720 pixels
Height                                   : 576 pixels
Display aspect ratio                     : 5:4
Frame rate mode                          : Constant
Frame rate                               : 25.000 fps
Standard                                 : PAL
Color space                              : YUV
Chroma subsampling                       : 4:2:0
Bit depth                                : 8 bits
Scan type                                : Progressive
Bits/(Pixel*Frame)                       : 0.965
Writing library                          : x264 core 148 r2694bm 3b70645
Default                                  : Yes
Forced                                   : No

Audio
ID                                       : 2
Format                                   : PCM
Codec ID                                 : A_PCM/INT/LIT
Duration                                 : 1h 42mn
Bit rate mode                            : Constant
Channel(s)                               : 2 channels
Sampling rate                            : 48.0 KHz
Bit depth                                : 16 bits
Default                                  : Yes
Forced                                   : No

Einstürzende Neubauten - Grande Halle de la Villette, Paris, France - 28.05.2017 (MP4)






From ARTE website

Setlist:
The Garden
Haus der Lüge
Nagorny Karabach
Dead Friends (Around the Corner)
Unvollständigkeit
Youme & Meyou
Die Befindlichkeit des Landes
Sonnenbarke
Von wegen (with 'Halber Mensch' intro)
Sabrina
Susej
How Did I Die?
Silence Is Sexy
Let's Do It a Dada
Total Eclipse of the Sun
Salamandrina
Redukt

Format                                   : MPEG-4
Format profile                           : Base Media
Codec ID                                 : isom
File size                                : 2.11 GiB
Duration                                 : 2h 0mn
Overall bit rate mode                    : Variable
Overall bit rate                         : 2 503 Kbps

Video
ID                                       : 1
Format                                   : AVC
Format/Info                              : Advanced Video Codec
Format profile                           : Main@L3.1
Format settings, CABAC                   : Yes
Format settings, ReFrames                : 3 frames
Codec ID                                 : avc1
Codec ID/Info                            : Advanced Video Coding
Duration                                 : 2h 0mn
Source duration                          : 2h 0mn
Bit rate                                 : 2 363 Kbps
Width                                    : 1 280 pixels
Height                                   : 720 pixels
Display aspect ratio                     : 16:9
Frame rate mode                          : Variable
Frame rate                               : 25.000 fps
Minimum frame rate                       : 5.000 fps
Maximum frame rate                       : 100.000 fps
Standard                                 : PAL
Color space                              : YUV
Chroma subsampling                       : 4:2:0
Bit depth                                : 8 bits
Scan type                                : Progressive
Bits/(Pixel*Frame)                       : 0.103
Stream size                              : 2.00 GiB (94%)
Source stream size                       : 2.00 GiB (94%)
Color range                              : Limited
mdhd_Duration                            : 7255680

Audio
ID                                       : 2
Format                                   : AAC
Format/Info                              : Advanced Audio Codec
Format profile                           : LC
Codec ID                                 : 40
Duration                                 : 2h 0mn
Bit rate mode                            : Variable
Bit rate                                 : 125 Kbps
Maximum bit rate                         : 222 Kbps
Channel(s)                               : 2 channels
Channel positions                        : Front: L R
Sampling rate                            : 48.0 KHz
Compression mode                         : Lossy
Stream size                              : 108 MiB (5%)


RE-UPLOAD: New Order - The Palace, Hollywood, USA - 04.11.1986 (Flac)




Excellent Soundboard, including my favourite track from the 2Brotherhood" LP, "Every Little Counts". Thanks to the original uploader.

Setlist:

01 - Shellshock
02 - Everything's Gone Green
03 - Ceremony
04 - Every Little Counts
05 - Leave Me alone
06 - Thieves Like Us
07 - Way Of Life
08 - Face-Up
09 - Temptation
10 - Confusion
11 - Blue Monday (Fade out)


Kirlian Camera - Magnet Club, Berlin, Germany - 01.10.2003 (Flac)


Very good audience recording. Thanks to KCfan for sending this one to share here.

Lineage:AUD1 DAT -> CD -> TLH -> Flac (8)

Setlist:

01. Gloria (re-read / Vivaldi)
02. Days To Come
03. News (V.2001)
04. Dead Zone In The Sky (V.3)
05. The Desert Inside
06. Absentee-s
07. Fields Of Sunset (Flu version...)
08. In The Endless Rain
09. The Unreachable One (V.3)
10. Blue Room (V,2003)
11. Erinnerung (V.4)
12. Eclipse (E.A.F. version)
13. Heldenplatz
14. Atmosphere (by Siderartica)

Kirlian Camera:
Angelo Berganini (synth, vocals)
Elena Alice Fossi (vocals, synth)
Andrea Fossi (synth)
Andrea Savelli (synth,acoustic guitar)

Siderartica is the same band without Angelo Berganini.

Some photos of this show are here:
http://www.darksite.ch/darklife/KCberlin2003.html

Do Not Sell!
Support the band and buy official products.
Enjoy.

Thurston Moore Band - Lauren Laverne Session, London. UK - 15.06.2017 (MP2)



Thanks to the original uploader on Dime.

Digital Satellite (live) broadcast 2017-06-15 MPEG1 layer 2 48kHz @ 160kbps:
BBC Radio 6 Music > DVB-S > TBS 6984 > DVBviewer > .mp2 >
Mpeg2Schnitt (trimming) > .mp2. Tags added with Mp3tag.

  1. Interview
  2. Cease Fire
  3. Interview                            14:46
//
  4. Interview
  5. Smoke Of Dreams
  6. Closing Comments                     14:31
Total Time : [29:27]

https://www.thurstonmoore.com/


Combichrist - Wacken Open Air, Wacken, Germany - 30.07.2015 (1080p)







Very good video. Thanks to SBE1Z for sharing on Dime.

Lineage: YouTube Webcast > youtube-dl > MKVToolNix GUI > .mkv

Video: H264/1920x1080p/25fps/3600Kbps
Audio: AAC/2.0/44.1KHz/128Kbps

Setlist:
We Were Made to Love You
Just Like Me
No Redemption
Zombie Fistfight
Can't Control
Maggots at the Party
Retreat Hell, Part 1
Never Surrender
Blut Royale
What the Fuck Is Wrong With You?
Love Is a Razorblade

Length: 00:43:37
_____
SBR1Z
2017


Claytown Troupe ‎– Singles 1989/1990 (Flac/MP3)






Huge thanks to RobH for sharing his collection of rare cd singles here, in Flac and MP3.


Prayer (1989)

Tracklist:
1 Prayer    
2 Chiricahua Sun    
3 Alabama (Recorded Live At Moles)    
4 Prayer (Extended Version)

Hey Lord (1989)

Tracklist:
1 Hey Lord    
2 The Night Is Ours (Extended Version)    
3 Hey Lord (12" Mix)

Ways Of Love (1990)

Tracklist:
1 Ways Of Love    
2 Heartbreaker    
3 Freedom (Live BBC Session)

Real Life (1990)

Tracklist
1 Real Life (7" Version)    
2 The Saddest Day    
3 Wonder    
4 Real Life (12" Version)

RE-UPLOAD: Propaganda - Toronto Music Hall, Canada - 07.10.1985 (Flac)



Excellent FM broadcast. Thanks to the original uploader.

Original Info File:

Captured from a very good indeed sounding cassette copy of a recording (on Type II cassette) of an FM broadcast of highlights of this concert, perhaps originally broadcast on the CKLN radio station (although this is not certain) - DJ intros/outros and advertisements or announcements removed by the original taper here and there, but the actual music (songs) are not affected.

Lineage:-
Traded 1st generation TDK-SA (Type II) cassette tape -> Aiwa ADF770 cassette deck -> Creative SB Extigy sound card -> CoolEdit Pro -> WAV -> CD-R

Conversion to FLAC :-
Original archived CD-R -> EAC -> WAV -> TLH -> FLAC 8 & .ffp

Setlist :-
01. Dream Within A Dream
02. Dr. Mabuse
03. The Murder Of Love
04. The Chase
05. Femme Fatale *
06. Sorry For Laughing **
07. Duel
08. Duel (reprise)
09. Frozen Faces
10. p: Machinery
11. Dr. Mabuse (encore)

Total length = 50 minutes approx.

* cover version of a Velvet Undergroud ( Lou Reed / Nico ) song
** cover version of a Josef K ( Paul Haig ) song

RE-UPLOAD: The Waterboys - Teatro Tenda, Rome, Italy - 04.06.1984 (Flac)



Audience recording transfered from a cassette of unknown generation. Very good sound.

With thanks to the original Taper and uploader.

Transfer:
Sony Tape deck > Line out >Zoom H2 44khz/16bit WAV file

Wavepad (track splitting) > Trader's Little Helper > Flac 8

Setlist:

01 - The Three Day Man
02 - A Girl Called Johnny
03 - All The Things She Gave Me
04 - Somebody Might Wave Back
05 - The Girl In The Swing
06 - Dancing Barefoot *
07 - Savage Earth Heart

Mike Scott - Vocals,Rhythm Guitar,Lead Guitar
Anthony Thistlethwaite - Sax,Acoustic Guitar
Kevin Wilkinson - Drums
Karl Wallinger - Keyboards,Backing vocals
Martyn Swain - Bass


Please do not sell or convert to a mp3 (unless for personal use)
Support the Artists - buy their albums and see them live

waterinrome

RE-UPLOAD: Dead Men Walking - Underworld, London, UK - 17.07.2003 (Flac)


Thanks to sam1 for sending me this recording to share here.

From Master Tape.


Billy Duffy (The Cult)
Slim Jim Phantom (The Stray Cats)
Mike Peters (The Alarm)
Glen Matlock (Sex Pistols)
Kirk Brandon (Spear Of Destiny)

Setlist:
01. Rock This Town
02. Wildflower (The Cult)
03. Burning Sounds
04. I Can See (Spear Of Destiny)
05. Propaganda (Theater Of Hate)
06. On Something
07. Street od a Thousand Faces/Rescue Me
08. Young Man
09. Fade In Fade Out (Coloursound)
10. Firewoman (The Cult)
11. Rumble in Brighton (Stray Cats)
12. Assume Ambition (Subway Sect)
13. Never Take Me Alive (Spear Of Destiny)
14. Edie (Ciao Baby) (The Cult)
15. Westworld (Theater Of Hate)
16. Spirit of 76 (The Alarm)
17. Runaway Boys (Stray Cats)
18. Pretty Vacant (Sex Pistols)
19. She Sells Sanctuary (The Cult)
20. Steppin Stone (Paul Revere and The Raiders)
21. She Sells Sanctuary (The Cult)
22. Rock This Town (fast version)

Do Not Sell!
Support the artists.
Enjoy.


Wednesday, 31 May 2017

RE-UPLOAD: The Sisters Of Mercy - Strathclyde University, Glasgow, Scotland - 09.03.1985 (Flac)





Thanks to Pista for sharing this one over at HL and letting me share it here with you. All he asked for was for the post to have a good photo. Hope You like the photos ;)

Original Info File:

once again ,i have'nt a clue where I got this ,some time in the mid eighties, thats all I know
sounds ok,but feel free to clean it up if desired!!

 ----------------

LINEAGE>UNKNOWN GEN CASSETTE>CDR>EAC>TRADERS HELPER>FLAC LEVEL6

----------------



TRACKLISTING

DISC 1
FIRST AND LAST AND ALWAYS
BODY AND SOUL
TRAIN
MARIAN
NO TIME TO CRY
WALK AWAY
BURN
EMMA

DISC 2
A ROCK AND A HARD PLACE
AMPHETAMINE LOGIC
FLOORSHOW
ALICE
BODY ELECTRIC
GIMMIE SHELTER
KNOCKIN ON HEAVENS DOOR
SISTER RAY/LOUIE LOUIE

The Pixies - Paradise Rock Club, Boston, USA - 21.05.2017 (Flac)



Very good FM broadcast. Thanks to the original uploader on Dime.

Notes :
92.5 the River | Boston's Independent Radio | WXRV Broadcast.
Many thanks to babybreese for sending his flac's.

Source   : FM (Unknown equipment)
Lineage  : 2 FLAC files from the taper
Editing : FLAC > Audacity (Remove most of station id's, Labels) > Trader's Little Helper Flac 6 > Foobar v1.3.11 (tagging)
Editing Date : 2017-05-22

Length : 91:22

01. Plaster of Paris (fades in)
02. I've Been Tired
03. Bel Esprit
04. Monkey Gone to Heaven
05. Tenement Song
06. Caribou
07. Might as Well Be Gone
08. The Holiday Song
09. Oona
10. Planet of Sound
11. Gouge Away
12. Talent
13. All the Saints
14. Indie Cindy
15. Where Is My Mind?
16. All I Think About Now
17. Um Chagga Lagga
18. Rock Music
19. Baal's Back
20. No. 13 Baby
21. Classic Masher
22. Wave of Mutilation
23. Crackity Jones
24. Isla de Encanta
25. Head Carrier
26. Bone Machine
27. Levitate Me
28. Cactus
29. Havalina
30. Velouria
31. ~ encore 1
32. Hey


***Enjoy this recording was made by fans for fans.
***Feel free to copy or repost it. Please use the info text file with all your activities.
***Share and trade freely in your own fan base domain.
***Support the artist and always buy official releases.

X-Mal Deutschland - Pandora's Music Box, De Doelen, Rotterdam, The Netherlands - 03.09.1983 (Flac)



Excellent sound. Thanks to Magnix for sharing on Dime.

Taken from the 33rd Dutch VPRO "Night Train" 747 AM radio broadcast / FM cable radio broadcast, February 1, 2002.

Source and lineage (taped and transferred by Magnix): FM cable > Tape > WAV > FLAC level 8.

Used software: CDWave v1.94.5 > Cool Edit Pro v2.00 > CDWave v1.98 > FLAC v1.2.1 as build in CDWave v1.98.

Another tape from the Magnix Live Archive.

Tracklist:
01. 747 AM "Nighttrain" & DJ intro (1:01)
02. Boomerang (3:45)
03. Sehnsucht (4:12)
04. Orient (4:25)
05. Incubus Succubus (4:59)
06. Qual (3:45)
07. Zu Jung Zu Alt (3:23)
08. Stummes Kind (5:07)
09. DJ outro Xmal Deutschland (0:14)

Total running time: 30 minutes and 51 seconds.

Swans - Marc Riley Session, Media City, Manchester, UK - 22.05.2017 (MP2)



Excellent sound. Thanks to the original uploader on FDime.

Digital Satellite (live) broadcast 2017-05-22 MPEG1 layer 2 48kHz @ 160kbps:
BBC Radio 6 Music > DVB-S > TBS 6984 > DVBviewer > .mp2 >
Mpeg2Schnitt (trimming) > .mp2. Tags added with Mp3tag.

"Screen Shot" was broadcast on Gideon Coe show immediately following the Marc Riley show,
(and was recorded, not played live for Gideon Coe).

  1. Interview / The Man Who Refused To Be Unhappy     15:56
  2. Interview / The Glowing Man  16:31
  3.  Screen Shot                            6:20

Total Time : [38:48]


Nearly God (Tricky, Terry Hall, Martina Topley Bird) - The White Room, London, UK - 21.03.1996 (MPG)







Tricky as Nearly God performing with guest vocals of Terry Hall of The Specials and Martina Topley Bird. Thanks to the anonimous collaborator for sending me this video to share here.

Lineage: TV broadcast -> VHS (0)-> Panasonic NV-HS860 -> EZCAP With Arcsoft Showbiz -> MPG

01. Ghost Town
02. Poems

Total Time. 06min 09s

Do Not Sell!
Enjoy.


Format                                   : MPEG-PS
File size                                : 190 MiB
Duration                                 : 6mn 9s
Overall bit rate                         : 4 300 Kbps
Writing library                          : ArcSoft MPEG-2 NTSC

Video
ID                                       : 224 (0xE0)
Format                                   : MPEG Video
Format version                           : Version 2
Format profile                           : Main@Main
Format settings, BVOP                    : Yes
Format settings, Matrix                  : Custom
Format settings, GOP                     : M=3, N=15
Duration                                 : 6mn 9s
Bit rate                                 : 4 096 Kbps
Width                                    : 640 pixels
Height                                   : 480 pixels
Display aspect ratio                     : 4:3
Frame rate                               : 29.970 fps
Standard                                 : NTSC
Color space                              : YUV
Chroma subsampling                       : 4:2:0
Bit depth                                : 8 bits
Scan type                                : Progressive
Compression mode                         : Lossy
Bits/(Pixel*Frame)                       : 0.445
Time code of first frame                 : 00:00:00:00
Time code source                         : Group of pictures header
GOP, Open/Closed                         : Open
Stream size                              : 180 MiB (95%)
Writing library                          : ArcSoft MPEG-2 NTSC
Color primaries                          : BT.470 System M
Transfer characteristics                 : BT.470 System M
Matrix coefficients                      : BT.601

Audio
ID                                       : 192 (0xC0)
Format                                   : MPEG Audio
Format version                           : Version 1
Format profile                           : Layer 2
Duration                                 : 6mn 9s
Bit rate mode                            : Constant
Bit rate                                 : 128 Kbps
Channel(s)                               : 2 channels
Sampling rate                            : 44.1 KHz
Compression mode                         : Lossy
Stream size                              : 5.64 MiB (3%)

RE-UPLOAD: Christian Death - Alexandria Hotel, Los Angeles, USA - 22.12.1983 (Flac)





Another concert kindly shared by Superblasted, a HUGE Thank You to Him for this series of CD concerts.

Tape (audience / unknown generation) transfered into CD received in a trade in late 90's
Lineage: CD > EAC > Audacity (speed corrected) > WAV > FLAC > You

Original Info File:

Sound is pretty raw, but this is an historical performance.

This is the first Christian Death gig with joining team Valor, Gitane Demone, Constance and David Glass,
who will bring us one of the most intriging and beautiful piece of music (at least to me): Catastrophe Ballet.

New songs and new versions are tested here (ie. Burnt offerings with Electra Descending lyrics, first performance of The Drowning...) wich make this one a must have gig!

Enjoy !

Setlist:


01. Awake at the Wall (instrumental)
02. Sleepwalk
03. Cavity - First Communion
04. Figurative Theatre          
05. Resurection - Sixth Communion
06. Face
07. Working On Beyond  
08. Romeo's Distress
09. Burnt Offerings
10. Theatre Of Pain
11. The Drowning


RE-UPLOAD: The Nefilim - Longhorn, Stuttgart, Geremany - 12.12.1993 (MP3)



Stiil looking for a lossless version of this one, for now this what I have MP3 2556kbps. I'm not sure who was the original uploader but I leave here my Thank You to him. Good sound and a highly charged performance.

Tracklist:
01.24th Moment / Still Life
02. Xodus
03. Pazuzu (Black Rain)
04. Shine
05. Moonchild
06. Dawnrazor
07. Zoon III (Wake World)
08. Penetration
09. Venus Decomposing
10. Last Exit for the Lost
11. Chord of Souls


Dawn After Dark - Vinyl Collection 1988-1989 (MP3)





A new gift from RobH, he sent us the link for his vinyl rips of Dawn After dark's only 3 vinyl releases. The first EP was alreadu«y in the blog in Flac, but the other 2 are still very difficult to find nowadays.

Crystal High / See-Rap EP (1988)

Tracklist
A1     Crystal High    
A2     Ghetto Gods & Go Go Gurus    
B1     See-Rap    
B2     To Kill A Friendship


Maximum Overdrive (1989)

Tracklist
A     Maximum Overdrive    
B1     Let Me Touch    
B2     Dreamstress

The Groove (1989)

Tracklist

A     The Groove
B1     No Shame
B2     Is There Time?

RE-UPLOAD: Moonspell - Campo Pequeno, Lisboa, Portugal - 12.05.2012 (Flac)



Here's one I posted on DIME. It makes sense to posted here also. Portugal's pride in everyting related to dark music.

Taper: circle
Gear: Sony MZ-RH10 HiMD + Sony ECM-717 Mic
Lineage: MD -> Audacity (normalize and Fades) -> TLH -> Flac (level 6)

NOTES:

A very special night of presentaion of their new double CD "Alpha Noir/ Omega White" with both records being played entirely in two diferent sets, completed with songs from the band's back catalogue that were close in aesthetic. Most of these songs won't be played live regulary (If ever again) at least for the time being, as the bands tour for this year is mainly festivals.

The stage was changed inbetween both sets, in the first part it was only the band with littledecoration on stage but lots of pyrothecnic, second part had three video screens with that projected films that were made by students of a portuguese video school. The videos were simple but extremely effective and gave the second set a readically diferent look. The pyrothecnics were substituted by falling "snow" on this set.

The band seemed less at ease with the "Omega White" material and Fernando decided to introduce all the songs almost from the begining, he seemed almost apologetical about the songs (don't know why, that album contains some of Moonspell's best songs in a decade). this is accentuated by the furiously speedy version of "Opium" (2:30 minutes only, probably the fastest version ever) that immediatly followed the last Omega song.

On the second set, the band was joined on stage by Carmen Simões (Ava Inferi) and Silvia Guerreiro (Godspeed Society) and Opus Diabolicum (two cello players).

The venue was full and the response to the public was quite enthusiastic to the new material. Fernando Ribeiro talked a lot, introducing songs, explaning some of the contents of lyrics and introducing the concept of the double album,I edited those talking parts into full tracks because they're in portuguese (Moonspeel native language), meaning that most of you won't understand what he says and maybe want to leave them out if burning a CD or doing a playlist.

Buy the new record "Alpha Noir" with the Bonus CD "White Omega", it really is worth it!



Setlist:

01. Promoter Intro

Set 1: Alpha Noir

02. Intro
03. Axis Mundi
04. Lickanthrope
05. Versus
06. Alpha Noir
07. (talking to the audience)
08. Em Nome do Medo
09. Opera Carne
10. Love is Blasphemy
11. (talking to the audience)
12. Grand Stand
13. Sine Missione
14. Finisterra
15. Night Eternal
16. Wolfshade (A Werewolf Masquerade)
17. Vampiria
18. (Jam - talking to the audience)
19. Alma Mater (missing last 15 seconds)

Set 2: Omega White

20. White Omega
21. White Skies
22. Fire Season
23. (Dedication to Peter Steele)
24. New Tears Eve
25. (talking to the audience)
26. Herodisiac
27. (Special Guests Introduction)
28. Incantatrix
29. (talking to the audience)
30. Sacrificial
31. (talking to the audience)
32. A Greater Darkness
33. Opium
34. An Erotic Alchemy
35. Raven Claws
36. (talking to the audience)
37. Scorpion Flower

Encore:

38. (Encore Break-Final Speech)
39. Full Moon Madness

Do Not Sell!!!
For sharing puposes only!
Support the band by going to the concerts and buying merchandise.


http://moonspell.com/
www.moonspell.rastilho.com/
http://www.facebook.com/moonspellband
http://www.myspace.com/moonspell

RE-UPLOAD: Deborah Harry - The Ultimate Blonde - Bootleg (Flac)




I shared this one on DIME yesterday and was quite welcomed, so might as well post it here, just in case. Found this while searching a friend's record collection and thought it would be cool to liberate it. Sound is excellent, sourced on two different Radio broadcasts.

Lineage: Bootleg CD -> TLH -> Flac (Level 8)




Tracklist:

Summer XS, Wembley Stadium, London, England - 13 July 1991

01. Union City Blue
02. Dreaming
03. I Want That Man
04. Heart Of Glass
05. Rapture
06. (I'm Always) Touched By Your Presence Dear
07. Hanging Around On The Telephone
08. Standing In My Way
09. The Bright Side
10. French Kissin' In The USA
11. Call Me
12. Atomic

Town & Country Club, London, England - 30 November 1989

13. The Hunter
14. Love Light
15. Get Your Way
16. Kiss It Better
17. Detroit 442
18. Bike Boy

Do Not Sell!
Support the artist by buying the official releases!
Please keep it lossles, MP3 just for personal use, please.
Enjoy!

Sunday, 14 May 2017

RE-UPLOAD: The Sisters Of Mercy - Wembley Arena, London, UK - 26.11.1990 (Flac)



The last of two concerts in a row in this venue, I already posted the one from the 24th of November. I

Setlist:
01. First and Last and Always
02. Lucretia My Reflection
03. Body and Soul
04. Detonation Boulevard
05. Ribbons
06. Dominion/Mother Russia
07. Flood II
08. Valentine
09. Heartland
10. Doctor Jeep
11. Body Electric
12. Amphetamine Logic
13. Marian
14. Alice
15. Gimme Shelter
16. This Corrosion
17. Something Fast
18. Temple of Love
19. Vision Thing
20. 1969

Depeche Mode - Ziggo Dome, Amsterdam, Netherlands - 07.05.2017 (Flac)




Thanks to the taper for sharing his recording on Dime.

Original Info File:

Global Spirit Tour

Taper: ONE8UNG

Setlist:

01. Intro
02. Going Backwards
03. So Much Love
04. Barrel Of A Gun
05. A Pain That I'm Used To
06. Corrupt
07. In Your Room
08. World In My Eyes
09. Cover Me
10. Home
11. A Question Of Lust
12. Poison Heart
13. Where's The Revolution
14. Wrong
15. Everything Counts
16. Stripped
17. Enjoy The Silence
18. Never Let Me Down Again
19. Encore Break
20. Somebody
21. Walking In My Shoes
22. Heroes (David Bowie Cover)
23. I Feel You
24. Personal Jesus
25. Outro

- HARDWARE: CA-11 (OMNI) => CA-UBB => iRiver H340 (Rockbox OS & Kingston CompactFlash)
- SOFTWARE: Adobe Audition CC => CD Wave Editor => TLH (flac level 8) => MP3TAG


Taper wishes:


- Distribute this bootleg only as the original flac files with the original Checksum & Info file!
- Do NOT remaster or use this bootleg for a matrix without permission!

Massive Attack - The White Room, London, UK - 02.03.1996 (MPG)






Thanks to the anonimous collaborator for sending me this video to share here.

NOTES: The date is from the broadcast

Part of the TXDRVR collection of videos, this is TXDRVR051.

Lineage: TV broadcast -> VHS (0)-> Panasonic NV-HS860 -> EZCAP With Arcsoft Showbiz -> MPG

Tracklist:

01. Karmacoma
02. Eurochild (Euro Zero Zero)

Total Time: 9m 11s

Do Not Sell!
Enjoy.

Format                                   : MPEG-PS
File size                                : 283 MiB
Duration                                 : 9mn 11s
Overall bit rate                         : 4 300 Kbps
Writing library                          : ArcSoft MPEG-2 NTSC

Video
ID                                       : 224 (0xE0)
Format                                   : MPEG Video
Format version                           : Version 2
Format profile                           : Main@Main
Format settings, BVOP                    : Yes
Format settings, Matrix                  : Custom
Format settings, GOP                     : M=3, N=15
Duration                                 : 9mn 11s
Bit rate                                 : 4 096 Kbps
Width                                    : 640 pixels
Height                                   : 480 pixels
Display aspect ratio                     : 4:3
Frame rate                               : 29.970 fps
Standard                                 : NTSC
Color space                              : YUV
Chroma subsampling                       : 4:2:0
Bit depth                                : 8 bits
Scan type                                : Progressive
Compression mode                         : Lossy
Bits/(Pixel*Frame)                       : 0.445
Time code of first frame                 : 00:00:00:00
Time code source                         : Group of pictures header
GOP, Open/Closed                         : Open
Stream size                              : 269 MiB (95%)
Writing library                          : ArcSoft MPEG-2 NTSC
Color primaries                          : BT.470 System M
Transfer characteristics                 : BT.470 System M
Matrix coefficients                      : BT.601

Audio
ID                                       : 192 (0xC0)
Format                                   : MPEG Audio
Format version                           : Version 1
Format profile                           : Layer 2
Duration                                 : 9mn 11s
Bit rate mode                            : Constant
Bit rate                                 : 128 Kbps
Channel(s)                               : 2 channels
Sampling rate                            : 44.1 KHz
Compression mode                         : Lossy
Stream size                              : 8.41 MiB (3%)