Friday, 14 April 2017

Red Lorry Yellow Lorry - The Town & Country Club,London, UK - 15.10.1987 (MPG)







Thanks to the anonimous collaborator for sending me this one to share here.

Lineage: Audience Recording -> VHS (low)-> Panasonic NV-HS860 -> EZCAP With Arcsoft Showbiz -> MPG

00:00 Intro
01:17 Spinning Round
04:00 Hold Yourself Down
06:40 Hang Man
09:26 Crawling Mantra
12:16 Another Side
14:50 You Only Get What You Pay For
18:23 Jipp
21:20 Talk About The Weather
25:18 Open Up
28:29 All The Same
31:20 Generation
34:34 Shout At The Sky
38:00 Walking On Your Hands


Total Time: 41m 07s

Do Not Sell!
Enjoy.

Format                                   : MPEG-PS
File size                                : 1.65 GiB
Duration                                 : 41mn 18s
Overall bit rate mode                    : Variable
Overall bit rate                         : 5 709 Kbps
Writing library                          : ArcSoft MPEG-2 PAL

Video
ID                                       : 224 (0xE0)
Format                                   : MPEG Video
Format version                           : Version 2
Format profile                           : Main@Main
Format settings, BVOP                    : Yes
Format settings, Matrix                  : Custom
Format settings, GOP                     : M=3, N=10
Format settings, picture structure       : Frame
Duration                                 : 41mn 18s
Bit rate mode                            : Variable
Bit rate                                 : 5 371 Kbps
Maximum bit rate                         : 7 500 Kbps
Width                                    : 720 pixels
Height                                   : 576 pixels
Display aspect ratio                     : 4:3
Frame rate                               : 25.000 fps
Standard                                 : PAL
Color space                              : YUV
Chroma subsampling                       : 4:2:0
Bit depth                                : 8 bits
Scan type                                : Interlaced
Scan order                               : Top Field First
Compression mode                         : Lossy
Bits/(Pixel*Frame)                       : 0.518
Time code of first frame                 : 00:00:00:00
Time code source                         : Group of pictures header
GOP, Open/Closed                         : Closed
Stream size                              : 1.55 GiB (94%)
Writing library                          : ArcSoft MPEG-2 PAL
Color primaries                          : BT.601 PAL
Transfer characteristics                 : BT.470 System B, BT.470 System G
Matrix coefficients                      : BT.601

Audio
ID                                       : 192 (0xC0)
Format                                   : MPEG Audio
Format version                           : Version 1
Format profile                           : Layer 2
Duration                                 : 41mn 17s
Bit rate mode                            : Constant
Bit rate                                 : 224 Kbps
Channel(s)                               : 2 channels
Sampling rate                            : 48.0 KHz
Compression mode                         : Lossy
Delay relative to video                  : -18ms
Stream size                              : 66.2 MiB (4%)



part1
part2
part3

1 comment: